#TITLE:The Climax of the Tower;
#SUBTITLE:Valkyrie Profile;
#ARTIST:Motoi Sakuraba;
#TITLETRANSLIT:;
#SUBTITLETRANSLIT:;
#ARTISTTRANSLIT:;
#CREDIT:;
#BANNER:The Climax of the Tower-bn.png;
#BACKGROUND:The Climax of the Tower-bg.png;
#LYRICSPATH:;
#CDTITLE:nuclearshadow.png;
#MUSIC:The Climax of the Tower.mp3;
#OFFSET:-0.444;
#SAMPLESTART:56.210;
#SAMPLELENGTH:12.000;
#SELECTABLE:YES;
#BPMS:0.000=126.010;
#STOPS:;
#BGCHANGES:;
// cache tags:
#FIRSTBEAT:0.000;
#LASTBEAT:152.750;
#SONGFILENAME:Songs/Music V.I.P ^_^/The Climax of the Tower (NuclearShadow)/The Climax of the Tower.sm;
#HASMUSIC:1;
#HASBANNER:1;
#MUSICLENGTH:77.871;
// end cache tags

//---------------dance-single - Heavy----------------
#NOTES:
     dance-single:
     Heavy:
     Hard:
     11:
     1.000,0.883,1.000,0.090,1.000,429.000,130.000,7.000,0.000,0.000:



0001
0010
0100
1000
0000
0011
1100
0000
0100
0010
0100
0010
0001
0010
0100
1000
,
0000
1100
0011
0000
0001
1000
0010
0100
0001
1000
0010
0100
0000
1001
0011
0000
,
0100
0010
0100
0001
0010
0000
1100
0000
0011
1100
0000
0110
0000
1100
0000
0001
,
0110
0001
1000
0001
0000
0101
1010
0000
0100
0010
0001
0010
0100
1000
0100
0010
,
0000
1001
0110
0000
0100
1000
0100
0010
0001
0100
0010
0100
0000
0101
1010
0000
,
1000
0010
0100
0001
1000
0010
0100
1000
0100
0010
0001
0010
0100
0010
0001
1000
,
0110
0000
1100
0011
0000
0101
1010
0000
0100
0000
0010
0000
0101
0000
0101
1010
,
0000
1100
0011
0000
0010
0000
0100
0000
1100
0000
0011
1001
0000
1010
0101
0000
,
0010
0000
0100
0000
0001
0010
0001
0010
0100
0010
0100
1000
0100
0010
0001
0010
,
1100
0000
0101
0110
0000
1001
1010
0000
0100
0000
0010
0000
1001
0000
0110
1001
,
0000
1001
0110
0000
0001
0000
0100
0000
1001
0000
0110
0101
0000
0101
0110
0000
,
1000
0000
0001
0000
1010
0110
0000
0110
0000
0011
0000
0200
0000
0310
0011
0110
,
0110
0001
0010
0100
0000
0011
1100
0000
0010
0001
0010
0100
0010
1000
0100
0010
,
0000
0011
1010
0000
0100
0010
0100
0010
0001
0010
0100
1000
0000
1010
0011
0000
,
1000
0100
0010
0001
1000
0000
0110
0000
1001
0110
0000
1001
0000
0110
0000
0100
,
1010
0100
0001
0010
0000
1100
0110
0000
0001
0010
1000
0100
0010
0100
0010
0001
,
0000
0110
1001
0000
0010
0100
0010
0100
0001
1000
0100
0010
0000
1010
0101
0000
,
0010
0100
0010
0001
1000
0100
0010
0001
1000
0100
0010
0001
1000
0100
0010
0001
,
0110
0000
0101
1010
0000
1010
0101
0000
0010
0000
0100
0000
1010
0000
0101
1010
,
0000
0101
1010
0000
0001
0000
1000
0000
0110
0000
1001
0110
0000
0110
1001
0000
,
0010
0000
0010
0000
0100
0010
0100
0010
0001
0010
0001
0010
0100
1000
0100
1000
,
0011
0000
0110
1010
0000
0011
1100
0000
0001
0000
0010
0000
1000
0000
0110
1001
,
0000
0101
1010
0000
0100
0000
0010
0000
1001
0000
0110
1010
0000
0110
0101
0000
,
1000
0000
0001
0000
1001
0110
0000
1010
0000
0101
0000
0022
0000
0000
0000
0033
,
1010
0100
0010
0001
0100
0000
0100
0000
0010
0000
0010
0000
0001
0000
0100
0001
,
0010
0100
0010
0000
0001
0000
0001
0000
0100
0000
0010
0000
0010
0000
0001
0010
,
1000
0100
0010
0000
0100
0000
0100
0000
0010
0100
0010
0100
0001
0000
0100
0000
,
0010
0000
0010
0000
0101
0010
0100
0001
1000
0000
0010
0000
0001
0000
0100
0000
,
0010
0000
0010
0001
0100
0010
0001
0000
1000
0000
1000
0000
0001
0000
0010
0000
,
1000
0000
0100
0001
0010
0100
0010
0000
0100
0000
0001
0000
1000
0100
1000
0010
,
0001
0000
0100
0000
0010
0000
0010
0000
0110
0001
0010
0100
1000
0001
0010
0100
,
1000
0001
0010
0100
1000
1000
1000
2200
0000
0000
0000
0000
3300
0000
0101
0000
,
0010
0100
0000
0100
0000
1000
0000
0010
0000
0010
0100
0000
1001
0000
0010
0000
,
0100
0100
0000
0100
0000
0010
0000
0001
0000
0010
0100
0000
1010
0000
0100
0000
,
0010
0010
0000
0010
0000
0001
1010
0000
0100
0000
0010
0001
0000
0001
0000
0010
,
0000
0100
1010
0100
0010
0100
0000
0011
1100
0000
0010
0001
0010
0100
1000
0100
,
0010
0001
0000
0110
1001
0000
0100
1000
0001
0010
0100
1000
0010
0100
0000
1010
,
0101
0000
0010
1000
0110
1001
0110
0000
1001
0000
0101
1010
0000
0110
0000
2002
,
0000
0000
0000
3003
0000
0000
0000
0000
0000
0000
0000
0000
0000
0000
0000
0000
;

//---------------dance-single - Challenge----------------
#NOTES:
     dance-single:
     Challenge:
     Challenge:
     13:
     1.000,1.000,1.000,0.103,1.000,429.000,304.000,8.000,0.000,5.000:

0011
0011
0110
1100
0000
0011
1100
0000
0110
0110
1100
1010
0101
0011
0110
1001
,
0000
1100
0011
0000
0101
1010
0110
0101
0011
1100
0011
0110
0000
1001
0011
0000
,
0101
1010
0101
1001
0110
0000
1100
0000
0011
1100
0000
0110
0000
1100
0000
1001
,
0110
0101
1010
0101
0000
0101
1010
0000
0110
0110
0011
0011
0110
1001
0110
1010
,
0000
1001
0110
0000
0110
1001
1100
0110
1001
0101
0011
0110
0000
0101
1010
0000
,
1001
0110
0110
0011
1100
0110
0110
0110
1001
1001
1001
0110
1010
1010
1010
0101
,
0110
0000
1100
0011
0000
0101
1010
0000
0110
0000
0110
0000
0101
0000
0101
1010
,
0000
1100
0011
0000
1010
0000
0101
0000
1100
0000
0011
1001
0000
1010
0101
0000
,
1010
0000
0110
0000
0001
0010
0001
0010
0100
0010
0100
1000
0100
0010
0001
0010
,
1100
0000
0101
0110
0000
1001
1010
0000
0101
0000
0110
0000
1001
0000
0110
1001
,
0000
1001
0110
0000
1001
0000
0110
0000
1001
0000
0110
0101
0000
0101
0110
0000
,
1000
0000
0001
0000
1010
0110
0000
0110
0000
0011
0000
0200
0000
0310
0011
0110
,
0110
1001
0011
0110
0000
0011
1100
0000
1010
0011
0110
1100
0110
1010
0101
0011
,
0000
0011
1010
0000
0110
0110
0101
0110
1001
0110
0101
1010
0000
1010
0011
0000
,
1100
0110
0110
0011
1010
0000
0110
0000
1001
0110
0000
1001
0000
0110
0000
0101
,
1010
0101
1001
0110
0000
1100
0110
0000
1001
0110
1001
0110
1010
0110
1010
0011
,
0000
0110
1001
0000
0011
0110
1010
0101
0101
1010
0110
0011
0000
1010
0101
0000
,
0010
0100
0010
0001
1000
0100
0010
0001
1000
0100
0010
0001
1000
0100
0010
0001
,
0110
0000
0101
1010
0000
1010
0101
0000
0011
0000
0101
0000
1010
0000
0101
1010
,
0000
0101
1010
0000
0011
0000
1100
0000
0110
0000
1001
0110
0000
0110
1001
0000
,
0110
0000
0110
0000
0100
0010
0100
0010
0001
0010
0001
0010
0100
1000
0100
1000
,
0011
0000
0110
1010
0000
0011
1100
0000
1001
0000
1010
0000
1100
0000
0110
1001
,
0000
0101
1010
0000
0101
0000
0011
0000
1001
0000
0110
1010
0000
0110
0101
0000
,
1010
0000
0101
0000
1001
0110
0000
1010
0000
0101
0000
0022
0000
0000
0000
0033
,
1010
0100
0010
0001
0100
0000
0100
0000
0010
0000
0010
0000
0001
0000
0100
0001
,
1000
0100
0010
0000
0001
0000
0001
0000
0010
0000
0010
0000
1000
0000
0001
0010
,
1000
0100
0010
0000
0100
0000
0100
0000
0010
0100
0010
0100
1000
0000
0100
0000
,
0010
0000
0010
0000
1001
0010
0100
0001
0010
0000
0010
0000
0001
0000
0100
0000
,
0010
0000
0010
0001
0100
0010
0001
0000
0010
0000
1000
0000
0100
0000
0010
0000
,
1000
0000
0100
0001
0010
0100
0010
0000
0100
0000
0001
0000
0001
0100
1000
0010
,
0001
0000
0100
0000
1000
0000
0010
0000
1100
0001
0010
0100
1000
0001
0010
0100
,
1000
0001
0010
0100
1000
1000
1000
2220
0000
0000
0000
0000
0000
3330
1011
0000
,
0110
1001
0000
0110
0000
0110
0000
1001
0000
1010
0101
0000
1110
0000
1100
0000
,
0101
1010
0000
1100
0000
0110
0000
0011
0000
1001
0110
0000
1110
0000
0101
0000
,
0011
1100
0000
1010
0000
0110
1011
0000
1100
0000
1010
0110
0000
0101
0000
0011
,
0000
0100
1010
0101
1010
0101
0000
0011
1100
0000
0110
1001
0110
0101
1010
1100
,
0110
0101
0000
0110
1001
0000
0110
1010
0101
0011
0110
1001
1010
0110
0000
1010
,
0101
0000
0110
1001
0110
1001
0110
0000
1001
0000
0101
1010
0000
0110
0000
2002
,
0000
0000
0000
3003
0000
0000
0000
0000
0000
0000
0000
0000
0000
0000
0000
0000
;
